Jurassic World Dominion 2022 1080p AMZN WEBRip DDP5 1 x265-iMAGiNE

  • CategoryMovies
  • TypeHEVC/x265
  • Total size2.4 GB
  • Uploaded Bymazemaze16
  • Downloads92
  • Last checkedJul. 20th ’22
  • Date uploadedJul. 20th ’22
  • Seeders 97
  • Leechers30

  • Jurassic World Dominion


    Science Fiction

    Action

    Adventure

    Thriller

    Four years after Isla Nublar was destroyed, dinosaurs now live—and hunt—alongside humans all over the world. This fragile balance will reshape the future and determine, once and for all, whether human beings are to remain the apex predators on a planet they now share with history’s most fearsome creatures.







    Jurassic World Dominion 2022 1080p AMZN WEBRip DDP5 1 x265-iMAGiNE

    Video

    ID : 1

    Format : HEVC

    Format/Info : High Efficiency Video Coding

    Format profile : Main [email protected]@Main

    Codec ID : V_MPEGH/ISO/HEVC

    Duration : 2 h 27 min

    Bit rate : 1 956 kb/s

    Width : 1 920 pixels

    Height : 960 pixels

    Display aspect ratio : 2.000

    Frame rate mode : Constant

    Frame rate : 23.976 (24000/1001) FPS

    Color space : YUV

    Chroma subsampling : 4:2:0 (Type 0)

    Bit depth : 10 bits

    Bits/(Pixel*Frame) : 0.044

    Stream size : 2.02 GiB (84%)

    Language : English

    Default : Yes

    Forced : No

    Color range : Limited

    Color primaries : BT.709

    Transfer characteristics : BT.709

    Matrix coefficients : BT.709

    Audio

    ID : 2

    Format : E-AC-3

    Format/Info : Enhanced AC-3

    Commercial name : Dolby Digital Plus

    Codec ID : A_EAC3

    Duration : 2 h 27 min

    Bit rate mode : Constant

    Bit rate : 320 kb/s

    Channel(s) : 6 channels

    Channel layout : L R C LFE Ls Rs

    Sampling rate : 48.0 kHz

    Frame rate : 31.250 FPS (1536 SPF)

    Compression mode : Lossy

    Delay relative to video : -5 ms

    Stream size : 338 MiB (14%)

    Title : Surround

    Language : English

    Service kind : Complete Main

    Default : Yes

    Forced : No

    Text #1

    ID : 3

    Format : UTF-8

    Codec ID : S_oEXT/UTF8

    Codec ID/Info : UTF-8 Plain Text

    Language : English

    Default : No

    Forced : No

    Text #2

    ID : 4

    Format : UTF-8

    Codec ID : S_oEXT/UTF8

    Codec ID/Info : UTF-8 Plain Text

    Title : SDH

    Language : English

    Default : No

    Forced : No

    Text #3

    ID : 5

    Format : UTF-8

    Codec ID : S_oEXT/UTF8

    Codec ID/Info : UTF-8 Plain Text

    Title : Latin American

    Language : Spanish

    Default : No

    Forced : No

    Text #4

    ID : 6

    Format : UTF-8

    Codec ID : S_oEXT/UTF8

    Codec ID/Info : UTF-8 Plain Text

    Title : Canadian

    Language : French

    Default : No

    Forced : No

    Menu

    00:00:00.000 : en:Chapter 01

    00:07:20.190 : en:Chapter 02

    00:17:56.368 : en:Chapter 03

    00:25:18.309 : en:Chapter 04

    00:33:33.471 : en:Chapter 05

    00:42:56.618 : en:Chapter 06

    00:51:56.074 : en:Chapter 07

    00:59:39.913 : en:Chapter 08

    01:09:25.373 : en:Chapter 09

    01:18:41.137 : en:Chapter 10

    01:27:35.755 : en:Chapter 11

    01:35:52.293 : en:Chapter 12

    01:44:49.581 : en:Chapter 13

    01:53:46.618 : en:Chapter 14

    02:05:07.841 : en:Chapter 15

    02:14:49.339 : en:Chapter 16

    Screens: