Jurassic World Dominion (2022) 1080p HDRip [Dual Audio] [Hindi + English] x265 ESubs [2.0GB] – QRips.

  • CategoryMovies
  • TypeDubs/Dual Audio
  • Total size2.1 GB
  • Uploaded Bymazemaze16
  • Downloads1
  • Last checkedJul. 18th ’22
  • Date uploadedJul. 18th ’22
  • Seeders 0
  • Leechers0
  • Jurassic World Dominion (2022) 1080p HDRip [Dual Audio] [Hindi + English] x265 ESubs [2.0GB] – QRips

    Video

    ID : 1

    Format : HEVC

    Format/Info : High Efficiency Video Coding

    Format profile : Main [email protected]@Main

    Codec ID : V_MPEGH/ISO/HEVC

    Duration : 2 h 27 min

    Bit rate : 1 628 kb/s

    Width : 1 920 pixels

    Height : 960 pixels

    Display aspect ratio : 2.000

    Audio #1

    ID : 2

    Format : AAC LC SBR

    Format/Info : Advanced Audio Codec Low Complexity with Spectral Band Replication

    Commercial name : HE-AAC

    Format settings : NBC

    Codec ID : A_AAC-5

    Duration : 2 h 27 min

    Bit rate : 192 kb/s

    Channel(s) : 6 channels

    Channel layout : C L R Ls Rs LFE

    Sampling rate : 48.0 kHz

    Frame rate : 23.438 FPS (2048 SPF)

    Compression mode : Lossy

    Delay relative to video : -21 ms

    Stream size : 203 MiB (9%)

    Writing library : Lavc58.35.100 libfdk_aac

    Language : HindiAudio #2

    ID : 3

    Format : AAC LC

    Format/Info : Advanced Audio Codec Low Complexity

    Codec ID : A_AAC-2

    Duration : 2 h 27 min

    Bit rate : 205 kb/s

    Channel(s) : 6 channels

    Channel layout : L R C Cb Lb Rb

    Sampling rate : 48.0 kHz

    Frame rate : 46.875 FPS (1024 SPF)

    Compression mode : Lossy

    Delay relative to video : -21 ms

    Stream size : 217 MiB (10%)

    Language : English

    Screens: