Lightyear.La.Vera.Storia.Di.Buzz.2022.iTA-ENG.WEBDL.2160p.x265-CYBER.mkv

  • CategoryMovies
  • TypeHEVC/x265
  • Total size19.8 GB
  • Uploaded ByeXpOrTeRICV
  • Downloads6
  • Last checkedJul. 21st ’22
  • Date uploadedJul. 21st ’22
  • Seeders 0
  • Leechers0
  • DATI – TRAMA

    USA, 2022

    Genere: Animazione

    Regia di Angus MacLane

    Note

    Torna in uno spin-off tutto per sé l’astronauta giocattolo già protagonista della saga di Toy Story.

    Buzz Lightyear è un giovane astronauta alla sua prima missione: un semplice volo di addestramento che dovrebbe durare solo 4 minuti. Qualcosa però va storto e Buzz si trova lanciato attraverso un varco nello spazio-tempo e finisce proiettato nel futuro, a 62 anni dal momento in cui si trovava alla partenza. Da lì in poi la missione di Buzz, insieme al gatto robotico Sox e a Izzy Hawthorne, sarà di riuscire a tornare indietro.

    IMMAGINI



    REPORT

    General

    Unique ID : 180880601637910133873562573571476661355 (0x8814563251EEAF7C6227DCF11307A46B)

    Complete name : E:\Lightyear.2022\Lightyear.La.Vera.Storia.Di.Buzz.2022.iTA-ENG.WEBDL.2160p.x265-CYBER.mkv

    Format : Matroska

    Format version : Version 4

    File size : 19.8 GiB

    Duration : 1 h 45 min

    Overall bit rate : 26.9 Mb/s

    Movie name : ENJOY

    Encoded date : UTC 2022-07-20 17:06:40

    Writing application : mkvmerge v68.0.0 (‘The Curtain’) 64-bit

    Writing library : libebml v1.4.2 + libmatroska v1.6.4

    Video

    ID : 1

    Format : HEVC

    Format/Info : High Efficiency Video Coding

    Format profile : Main [email protected]@High

    HDR format : SMPTE ST 2086, HDR10 compatible

    Codec ID : V_MPEGH/ISO/HEVC

    Duration : 1 h 45 min

    Bit rate : 24.3 Mb/s

    Width : 3 840 pixels

    Height : 1 608 pixels

    Display aspect ratio : 2.40:1

    Frame rate mode : Constant

    Frame rate : 23.976 FPS

    Color space : YUV

    Chroma subsampling : 4:2:0 (Type 2)

    Bit depth : 10 bits

    Bits/(Pixel*Frame) : 0.164

    Stream size : 17.8 GiB (90%)

    Language : English

    Default : Yes

    Forced : No

    Color range : Limited

    Color primaries : BT.2020

    Transfer characteristics : PQ

    Matrix coefficients : BT.2020 non-constant

    Mastering display color primaries : BT.2020

    Mastering display luminance : min: 0.0050 cd/m2, max: 1000 cd/m2

    Maximum Content Light Level : 2170 cd/m2

    Maximum Frame-Average Light Level : 665 cd/m2

    Audio #1

    ID : 2

    Format : E-AC-3

    Format/Info : Enhanced AC-3

    Commercial name : Dolby Digital Plus

    Codec ID : A_EAC3

    Duration : 1 h 45 min

    Bit rate mode : Constant

    Bit rate : 640 kb/s

    Channel(s) : 6 channels

    Channel layout : L R C LFE Ls Rs

    Sampling rate : 48.0 kHz

    Frame rate : 31.250 FPS (1536 SPF)

    Compression mode : Lossy

    Stream size : 481 MiB (2%)

    Language : Italian

    Service kind : Complete Main

    Default : Yes

    Forced : No

    Audio #2

    ID : 3

    Format : AC-3

    Format/Info : Audio Coding 3

    Commercial name : Dolby Digital

    Codec ID : A_AC3

    Duration : 1 h 45 min

    Bit rate mode : Constant

    Bit rate : 640 kb/s

    Channel(s) : 6 channels

    Channel layout : L R C LFE Ls Rs

    Sampling rate : 48.0 kHz

    Frame rate : 31.250 FPS (1536 SPF)

    Compression mode : Lossy

    Stream size : 481 MiB (2%)

    Language : Italian

    Service kind : Complete Main

    Default : Yes

    Forced : No

    Audio #3

    ID : 4

    Format : E-AC-3 JOC

    Format/Info : Enhanced AC-3 with Joint Object Coding

    Commercial name : Dolby Digital Plus with Dolby Atmos

    Codec ID : A_EAC3

    Duration : 1 h 45 min

    Bit rate mode : Constant

    Bit rate : 768 kb/s

    Channel(s) : 6 channels

    Channel layout : L R C LFE Ls Rs

    Sampling rate : 48.0 kHz

    Frame rate : 31.250 FPS (1536 SPF)

    Compression mode : Lossy

    Stream size : 577 MiB (3%)

    Language : English

    Service kind : Complete Main

    Default : Yes

    Forced : No

    Complexity index : 16

    Number of dynamic objects : 15

    Bed channel count : 1 channel

    Bed channel configuration : LFE

    Audio #4

    ID : 5

    Format : AC-3

    Format/Info : Audio Coding 3

    Commercial name : Dolby Digital

    Codec ID : A_AC3

    Duration : 1 h 45 min

    Bit rate mode : Constant

    Bit rate : 640 kb/s

    Channel(s) : 6 channels

    Channel layout : L R C LFE Ls Rs

    Sampling rate : 48.0 kHz

    Frame rate : 31.250 FPS (1536 SPF)

    Compression mode : Lossy

    Stream size : 481 MiB (2%)

    Language : English

    Service kind : Complete Main

    Default : Yes

    Forced : No

    Text #1

    ID : 6

    Format : UTF-8

    Codec ID : S_TEXT/UTF8

    Codec ID/Info : UTF-8 Plain Text

    Duration : 56 min 51 s

    Bit rate : 0 b/s

    Count of elements : 8

    Stream size : 245 Bytes (0%)

    Title : FORCED

    Language : Italian

    Default : Yes

    Forced : No

    Text #2

    ID : 7

    Format : UTF-8

    Codec ID : S_TEXT/UTF8

    Codec ID/Info : UTF-8 Plain Text

    Duration : 1 h 43 min

    Bit rate : 65 b/s

    Count of elements : 1584

    Stream size : 49.8 KiB (0%)

    Title : REGOLARI

    Language : English

    Default : Yes

    Forced : No

    GOOD DOWNLOAD