The.Lost.City.2022.iTA.ENG.AC3.SUB.iTA.ENG.BluRay.HEVC.1080p.x265.jeddak-MIRCrew

  • CategoryMovies
  • TypeHEVC/x265
  • Total size2.4 GB
  • Uploaded Byjeddak
  • Downloads14
  • Last checkedJul. 21st ’22
  • Date uploadedJul. 21st ’22
  • Seeders 40
  • Leechers12

  • The Lost City


    Comedy

    Action

    Romance

    Adventure

    Follows a reclusive romance novelist who was sure nothing could be worse than getting stuck on a book tour with her cover model, until a kidnapping attempt sweeps them both into a cutthroat jungle adventure, proving life can be so much stranger, and more romantic, than any of her paperback fictions.








    The Lost City


    Titolo originale: The Lost City
    Genere: Azione, Avventura, Commedia

    Anno: 2022

    Regia: Aaron Nee, Adam Nee

    Attori: Sandra Bullock, Channing Tatum, Daniel Radcliffe, Da’Vine Joy Randolph, Oscar Nuñez, Patti Harrison, Bowen Yang, Brad Pitt, Raymond Lee

    Paese: USA

    Durata: 112 min

    Distribuzione: Eagle Pictures

    Sceneggiatura: Dana Fox, Oren Uziel, Adam Nee

    Fotografia: Jonathan Sela

    Montaggio: Craig Alpert

    Musiche: Pinar Toprak

    Produzione: 3dot productions, Exhibit A, Fortis Films


    The Lost City , il film diretto da Aaron e Adam Nee, racconta la storia di un’autrice di romanzi rosa di successo, Loretta Sage (Sandra Bullock), donna molto schiva e abituata a vivere in solitudine. I racconti della Sage sono sempre ambientati in luoghi esotici e hanno come protagonista maschile Dash, classico eroe belloccio che ha il volto nella vita reale del modello Alan (Channing Tatum), il quale appare sulle copertine dei suoi libri.

    Un giorno la donna è costretta a un tour promozionale con il modello, ma non è al sicuro, perché viene rapita da Fairfax (Daniel Radcliffe), un miliardario che crede che la scrittrice conosca il modo per giungere nella città perduta, che lei stessa descrive in un suo romanzo, e permettergli quindi di trovare il tesoro nascosto nella giungla. Alan, deciso a dimostrare che non presta solo il volto a un eroe, ma lo è anche nella realtà, cerca di salvare Loretta e mettersi sulle tracce del tesoro prima che Fairfax lo trovi. È così che i due finiranno per vivere realmente un’avventura bizzarra proprio come quelle narrate dalla scrittrice nei suoi romanzi.




    General

    Unique ID : 234986234521049637301437159448069145161 (0xB0C8B3DADC2B41BBA2C1077CEA120249)

    Complete name : The.Lost.City.2022.iTA.ENG.AC3.SUB.iTA.ENG.BluRay.HEVC.1080p.x265.jeddak-MIRCrew.mkv

    Format : Matroska

    Format version : Version 2

    File size : 2.40 GiB

    Duration : 1 h 51 min

    Overall bit rate : 3 073 kb/s

    Movie name : The.Lost.City.2022.iTA.ENG.AC3.SUB.iTA.ENG.BluRay.HEVC.1080p.x265.jeddak-MIRCrew

    Encoded date : UTC 2022-07-20 16:48:37

    Writing application : mkvmerge v5.6.0 (‘Kenya Kane’) built on May 27 2012 16:44:04

    Writing library : libebml v1.2.3 + libmatroska v1.3.0 / Lavf58.76.100

    Video

    ID : 1

    Format : HEVC

    Format/Info : High Efficiency Video Coding

    Format profile : [email protected]@Main

    Codec ID : V_MPEGH/ISO/HEVC

    Duration : 1 h 51 min

    Bit rate : 2 116 kb/s

    Width : 1 920 pixels

    Height : 800 pixels

    Display aspect ratio : 2.40:1

    Frame rate mode : Constant

    Frame rate : 23.976 (24000/1001) FPS

    Color space : YUV

    Chroma subsampling : 4:2:0

    Bit depth : 8 bits

    Bits/(Pixel*Frame) : 0.057

    Stream size : 1.65 GiB (69%)

    Title : …::: jeddak MIRCrew :::…

    Writing library : x265 3.5+1-f0c1022b6:[Linux][GCC 9.3.0][64 bit] 8bit+10bit+12bit

    Encoding settings : cpuid=1111039 / frame-threads=5 / wpp / no-pmode / no-pme / no-psnr / no-ssim / log-level=2 / input-csp=1 / input-res=1920×800 / interlace=0 / total-frames=0 / level-idc=40 / high-tier=1 / uhd-bd=0 / ref=3 / no-allow-non-conformance / no-repeat-headers / annexb / no-aud / no-hrd / info / hash=0 / no-temporal-layers / open-gop / min-keyint=24 / keyint=240 / gop-lookahead=0 / bframes=4 / b-adapt=2 / b-pyramid / bframe-bias=0 / rc-lookahead=20 / lookahead-slices=5 / scenecut=40 / hist-scenecut=0 / radl=0 / no-splice / no-intra-refresh / ctu=64 / min-cu-size=8 / no-rect / no-amp / max-tu-size=32 / tu-inter-depth=1 / tu-intra-depth=1 / limit-tu=0 / rdoq-level=0 / dynamic-rd=0.00 / no-ssim-rd / signhide / no-tskip / nr-intra=0 / nr-inter=0 / no-constrained-intra / strong-intra-smoothing / max-merge=3 / limit-refs=1 / no-limit-modes / me=1 / subme=2 / merange=57 / temporal-mvp / no-frame-dup / no-hme / weightp / no-weightb / no-analyze-src-pics / deblock=0:0 / sao / no-sao-non-deblock / rd=3 / selective-sao=4 / early-skip / rskip / no-fast-intra / no-tskip-fast / no-cu-lossless / b-intra / no-splitrd-skip / rdpenalty=0 / psy-rd=2.00 / psy-rdoq=0.00 / no-rd-refine / no-lossless / cbqpoffs=0 / crqpoffs=0 / rc=abr / bitrate=2100 / qcomp=0.60 / qpstep=4 / stats-write=0 / stats-read=0 / ipratio=1.40 / pbratio=1.30 / aq-mode=2 / aq-strength=1.00 / cutree / zone-count=0 / no-strict-cbr / qg-size=32 / no-rc-grain / qpmax=69 / qpmin=0 / no-const-vbv / sar=1 / overscan=0 / videoformat=5 / range=0 / colorprim=1 / transfer=1 / colormatrix=1 / chromaloc=0 / display-window=0 / cll=0,0 / min-luma=0 / max-luma=255 / log2-max-poc-lsb=8 / vui-timing-info / vui-hrd-info / slices=1 / no-opt-qp-pps / no-opt-ref-list-length-pps / no-multi-pass-opt-rps / scenecut-bias=0.05 / hist-threshold=0.03 / no-opt-cu-delta-qp / no-aq-motion / no-hdr10 / no-hdr10-opt / no-dhdr10-opt / no-idr-recovery-sei / analysis-reuse-level=0 / analysis-save-reuse-level=0 / analysis-load-reuse-level=0 / scale-factor=0 / refine-intra=0 / refine-inter=0 / refine-mv=1 / refine-ctu-distortion=0 / no-limit-sao / ctu-info=0 / no-lowpass-dct / refine-analysis-type=0 / copy-pic=1 / max-ausize-factor=1.0 / no-dynamic-refine / no-single-sei / no-hevc-aq / no-svt / no-field / qp-adaptation-range=1.00 / scenecut-aware-qp=0conformance-window-offsets / right=0 / bottom=0 / decoder-max-rate=0 / no-vbv-live-multi-pass

    Default : Yes

    Forced : No

    Color range : Limited

    Color primaries : BT.709

    Transfer characteristics : BT.709

    Matrix coefficients : BT.709

    Duration_Source : General_Duration

    Audio #1

    ID : 2

    Format : AC-3

    Format/Info : Audio Coding 3

    Commercial name : Dolby Digital

    Codec ID : A_AC3

    Duration : 1 h 51 min

    Bit rate mode : Constant

    Bit rate : 448 kb/s

    Channel(s) : 6 channels

    Channel layout : L R C LFE Ls Rs

    Sampling rate : 48.0 kHz

    Frame rate : 31.250 FPS (1536 SPF)

    Compression mode : Lossy

    Delay relative to video : -5 ms

    Stream size : 358 MiB (15%)

    Title : iTA AC3 5.1

    Language : Italian

    Service kind : Complete Main

    Default : Yes

    Forced : No

    Audio #2

    ID : 3

    Format : AC-3

    Format/Info : Audio Coding 3

    Commercial name : Dolby Digital

    Codec ID : A_AC3

    Duration : 1 h 51 min

    Bit rate mode : Constant

    Bit rate : 448 kb/s

    Channel(s) : 6 channels

    Channel layout : L R C LFE Ls Rs

    Sampling rate : 48.0 kHz

    Frame rate : 31.250 FPS (1536 SPF)

    Compression mode : Lossy

    Delay relative to video : -5 ms

    Stream size : 358 MiB (15%)

    Title : ENG AC3 5.1

    Language : English

    Service kind : Complete Main

    Default : No

    Forced : No

    Text #1

    ID : 4

    Format : UTF-8

    Codec ID : S_TEXT/UTF8

    Codec ID/Info : UTF-8 Plain Text

    Title : iTA FORCED – SRT

    Language : Italian

    Default : No

    Forced : Yes

    Text #2

    ID : 5

    Format : PGS

    Codec ID : S_HDMV/PGS

    Codec ID/Info : Picture based subtitle format used on BDs/HD-DVDs

    Duration : 1 h 51 min

    Title : iTA FORCED – PGS

    Language : Italian

    Default : Yes

    Forced : Yes

    Text #3

    ID : 6

    Format : PGS

    Codec ID : S_HDMV/PGS

    Codec ID/Info : Picture based subtitle format used on BDs/HD-DVDs

    Duration : 1 h 51 min

    Title : iTA REGULAR – PGS

    Language : Italian

    Default : No

    Forced : No

    Text #4

    ID : 7

    Format : PGS

    Codec ID : S_HDMV/PGS

    Codec ID/Info : Picture based subtitle format used on BDs/HD-DVDs

    Duration : 1 h 45 min

    Title : ENG NON UDENTI – PGS

    Language : English

    Default : No

    Forced : No

    Menu

    00:00:00.000 : :Capitolo 01

    00:11:26.728 : :Capitolo 02

    00:19:31.587 : :Capitolo 03

    00:26:55.572 : :Capitolo 04

    00:33:43.313 : :Capitolo 05

    00:41:29.320 : :Capitolo 06

    00:50:29.944 : :Capitolo 07

    01:02:19.194 : :Capitolo 08

    01:13:31.073 : :Capitolo 09

    01:23:19.286 : :Capitolo 10

    01:34:35.253 : :Capitolo 11

    01:44:52.578 : :Capitolo 12